#TITLE:Smack That;
#SUBTITLE:(Cover 2008);
#ARTIST:Unknown artist;
#TITLETRANSLIT:;
#SUBTITLETRANSLIT:;
#ARTISTTRANSLIT:;
#CREDIT:;
#BANNER:;
#BACKGROUND:;
#LYRICSPATH:;
#CDTITLE:;
#MUSIC:Smack That (Cover 2008).mp3;
#OFFSET:0.080;
#SAMPLESTART:100.000;
#SAMPLELENGTH:12.000;
#SELECTABLE:YES;
#BPMS:0.000=140.020,304.000=70.000,305.500=280.040,307.500=140.020,691.500=0.999;
#STOPS:;
#BGCHANGES:;
// cache tags:
#FIRSTBEAT:0.000;
#LASTBEAT:691.563;
#SONGFILENAME:Songs/Music V.I.P ^_^/Smack That (Cover 2008)/Smack That (Cover 2008).sm;
#HASMUSIC:1;
#HASBANNER:0;
#MUSICLENGTH:305.092;
// end cache tags

//---------------dance-single - ----------------
#NOTES:
     dance-single:
     :
     Hard:
     13:
     1.000,1.000,1.000,0.177,0.803,1698.000,879.000,54.000,26.000,55.000:
0100
0000
0000
0000
1001
0100
0000
0000
0010
0100
0000
0000
1001
0010
0000
0000
,
0100
0001
0000
0000
0011
0100
0000
0000
0100
0010
0000
0000
1010
0100
0000
0000
,
0001
1000
0000
0000
0101
1000
0000
0000
0100
0001
0000
0000
0110
0001
0000
0000
,
1000
0010
0000
0000
0101
1000
0000
0000
0001
0100
0000
0000
1010
0001
0000
0000
,
1010
0100
0000
0000
0010
0001
0000
0000
1001
0100
0000
0000
0100
0010
0000
0000
,
1010
0001
0000
0000
0001
0100
0000
0000
0110
0001
0000
0000
0010
1000
0000
0000
,
0110
0001
0000
0000
1000
0100
0000
0000
0011
0100
0000
0000
1001
0010
0000
0000
,
0011
0100
0000
0000
0100
0001
0000
0000
0110
0001
0000
0000
0100
1000
0000
0000
,
1010
0100
0000
0000
0010
0100
0000
0000
0101
0010
0000
0000
0100
0010
0000
0000
,
1001
0010
0101
0100
1010
0100
0011
0100
,
0011
1000
0101
0010
1100
0010
0101
0001
,
1100
0100
0011
0100
1001
0100
0011
0100
,
1010
0100
0011
0100
1001
0010
0101
0010
,
1100
1000
0101
0010
0101
0010
1100
0010
,
0101
0100
1010
0100
0011
0100
1001
0001
,
1010
0000
0100
0010
0001
0000
0100
0010
1001
0000
0010
0100
0011
0100
1000
0000
,
0101
1010
0110
0011
1100
0101
1010
0101
,
2010
0000
3101
1010
0021
0000
1130
0001
,
0100
1010
0011
1100
0011
1100
0101
0011
,
1100
0101
0110
1100
0201
0000
1310
0101
,
0100
1010
0011
1010
0101
1010
0011
1100
,
0101
0110
1100
0011
1020
0000
0131
0100
,
1010
1001
0110
1100
0101
0110
1010
0201
,
0000
1310
0000
1010
0001
0100
0001
0010
,
1010
0000
0101
0000
0000
0000
1100
0000
0011
0000
1010
0000
0101
0000
0000
0110
,
0000
1010
0000
0000
0000
1010
0000
0101
0000
1010
0000
0110
0000
0000
0000
1010
,
0000
0101
0000
0000
0000
0000
0110
0000
1100
0000
0101
0000
0110
0000
0000
0000
,
1010
0000
0101
0000
0000
0000
2000
0200
0020
0031
0310
3100
1000
0100
0010
0000
,
0101
1010
0100
0101
0110
1100
0201
0000
,
1310
0011
0100
0011
1100
0101
0210
0000
,
0311
1010
0100
0101
0010
1100
0102
0000
,
1013
0000
0101
0000
1010
0000
0100
0001
1100
0010
0100
0010
1001
0010
0100
0001
,
1100
0010
0100
0001
1010
0100
0001
0010
1100
0000
0010
0000
1100
0010
0100
0001
,
0110
1000
0100
0001
1010
0100
0001
0010
0101
0010
0100
0001
1010
0100
0001
0100
,
1001
0100
0010
0100
1001
0100
0010
0100
0011
0000
0100
0010
1001
0100
0010
0100
,
1100
0010
0001
0100
0011
0100
0010
0100
0011
0000
1000
0100
0011
0100
0001
0100
,
1010
0100
0010
0100
0011
0010
0100
0010
1100
0010
0001
0100
1010
0100
0001
0010
,
1100
0010
0001
0100
0011
0100
0001
0100
1010
0100
0010
0001
0110
1000
0001
0100
,
0011
0000
0010
0100
1010
0100
0001
0010
1001
0000
0100
0010
0101
0010
1000
0100
,
0011
0100
0001
0010
1100
1000
0001
0100
0011
0100
0001
0010
1100
0000
0101
0000
,
1010
0000
0000
0000
0110
0000
0000
0000
1001
0000
0000
0000
1010
0000
0000
0000
0011
0000
0000
0000
0110
0000
0000
0000
0101
0000
0000
0101
0000
0000
0101
0000
,
1100
0011
1100
0011
0101
1010
0101
0110
,
1100
0101
0110
0011
1100
1001
0101
1010
,
0110
0011
1100
0011
1100
0011
1001
0101
,
1010
0000
0110
0000
1001
0000
0101
0000
0011
0000
1000
0000
0101
0000
0010
0001
,
1100
0010
0001
0100
0011
0000
0100
0000
1010
0000
0100
0000
0011
0000
0000
0001
,
0110
1000
0100
0010
1001
0000
0100
0000
0011
0000
1000
0000
0101
0000
0110
0000
,
1000
0000
0101
0010
1100
0000
0011
0000
1100
0000
0001
0000
0220
0000
0000
0000
,
1331
0110
0110
1100
1100
0011
0011
1010
,
1010
0000
0101
0101
1001
0000
1001
0100
,
0001
0110
1001
1100
1001
0011
1001
1010
,
1001
0101
1001
0011
1001
0000
1001
0000
,
0110
0110
1100
0110
0011
0011
1100
1100
,
0011
0101
1100
1010
0011
0000
1010
0000
,
0100
0101
1010
0110
0101
1010
0101
2010
,
0000
3110
0001
0110
1000
0101
1010
0101
,
1010
0000
0101
0000
0000
0000
1100
0000
0011
0000
1010
0000
0101
0000
0000
0110
,
0000
1010
0000
0000
0000
1010
0000
0101
0000
1010
0000
0110
0000
0000
0000
1010
,
0000
0101
0000
0000
0000
0000
0110
0000
1100
0000
0101
0000
0110
0000
0000
0000
,
1010
0000
0110
0001
0010
0100
1000
0100
0010
0001
0010
0100
1000
0100
0010
0000
,
0101
1010
0100
0101
0110
1100
0201
0000
,
1310
0011
0100
0011
1100
0101
0210
0000
,
0311
1010
0100
0101
0010
1100
0102
0000
,
1013
0000
0101
0000
1010
0000
0100
0001
1100
0010
0100
0010
1001
0010
0100
0001
,
1100
0000
0101
0000
1010
0100
0001
0010
1100
0001
0010
0100
1100
0010
0100
0001
,
0110
0000
0101
0000
1010
0000
0101
0010
0101
0010
0100
0001
1010
0100
0001
0100
,
1001
0000
0101
0000
0010
0000
1001
0010
0100
0001
0010
0001
1100
0010
1001
0100
,
0011
0000
0011
0000
1010
0001
1000
0001
0010
1000
0101
0010
0001
0000
1001
0000
,
0110
0000
1001
0000
0110
0000
1010
0100
0100
0010
0001
0010
0100
0001
1000
0100
,
0010
0000
1010
0000
0010
0000
1010
0001
0001
0000
1010
0100
0010
0001
0010
0100
,
1000
0000
0011
0000
0010
0000
0110
1000
0001
0000
0110
1000
0100
0010
0100
0010
,
0001
0000
1100
0000
0010
0000
0101
0010
0100
0000
1010
0101
1010
0000
0101
1010
,
0101
0000
1010
0000
0100
0000
0011
0100
0100
0000
0100
0100
0100
0010
1001
0010
,
0101
0000
1010
0000
0100
0000
0101
0010
0010
0000
0010
0010
0010
1000
0100
0010
,
0101
0000
1100
0000
0010
0000
1010
1010
1010
0000
1001
0110
1001
0110
1010
0101
,
0101
1010
0100
0011
1100
0101
0110
1001
,
0220
M00M
M00M
M00M
M00M
M00M
M00M
M00M
M00M
M00M
M00M
M00M
M00M
M00M
1331
0000
,
0101
0000
0000
0000
1100
0000
0011
0000
1010
0000
0101
0000
0000
0110
0000
1010
,
0000
0000
0000
1010
0000
0101
0000
1010
0000
0110
0000
0000
0000
1010
0000
0101
,
0000
0000
0110
1100
0101
0110
0000
1010
,
0101
0000
0000
0000
2000
0200
0020
0031
0310
3100
1000
0100
0010
0000
0101
0000
,
1010
0100
0101
0110
1100
0201
0000
1310
,
0011
0100
0011
1100
0101
0210
0000
0311
,
1010
0100
0101
0010
1100
0102
0000
1013
,
0101
0000
1010
0000
0100
0001
1100
0010
0100
0010
1001
0010
0100
0001
1100
0010
,
0100
0001
1010
0100
0001
0010
1100
0000
0010
0000
1100
0010
0100
0001
0110
1000
,
0100
0001
1010
0100
0001
0010
0101
0010
0100
0001
1010
0100
0001
0100
1001
0100
,
0010
0100
1001
0100
0010
0100
0011
0000
0100
0010
1001
0100
0010
0100
1100
0010
,
0001
0100
0011
0100
0010
0100
0011
0000
1000
0100
0011
0100
0001
0100
1010
0100
,
0010
0100
0011
0010
0100
0010
1100
0010
0001
0100
1010
0100
0001
0010
1100
0010
,
0001
0100
0011
0100
0001
0100
1010
0100
0010
0001
0110
1000
0001
0100
0011
0000
,
0010
0100
1010
0100
0001
0010
1001
0000
0100
0010
0101
0010
1000
0100
0011
0100
,
0001
0010
1100
1000
0001
0100
0011
0100
0001
0010
1100
0010
0100
0010
1100
0010
,
0100
0001
1010
0100
0001
0010
1100
0001
0100
0010
1100
0001
0100
0010
1001
0100
,
0001
0010
1001
0100
0001
0010
1010
0100
0001
0010
1100
0010
0001
0100
0011
1000
,
0001
0100
1010
0001
0100
0010
1100
0000
1011
0000
1010
0000
0100
0001
1010
0100
,
0001
0010
0100
0001
1010
0100
1001
0010
0100
0010
1001
0000
1010
0000
0101
0000
,
1100
0010
0100
0001
0110
1000
0100
0001
1010
0100
0001
0010
0101
0010
0100
0001
,
1010
0100
0001
0100
1001
0100
0010
0100
1001
0100
0010
0100
0011
0000
0100
0010
,
1001
0100
0010
0100
1100
0010
0001
0100
0011
0100
0010
0100
0011
0000
1000
0100
,
0011
0100
0001
0100
1010
0100
0010
0100
0011
0010
0100
0010
1100
0010
0001
0100
,
1010
0110
0011
1100
0101
1010
0101
2010
,
0000
3101
1010
0021
0000
1130
0001
0100
,
1010
0011
1100
0011
1100
0101
0011
1100
,
0101
0110
1100
0201
0000
1310
0101
0100
,
1010
0011
1010
0101
1010
0011
1100
0101
,
0110
1100
0011
1020
0000
0131
0100
1010
,
1001
0110
1100
0101
0110
1010
0201
0000
,
1310
0000
1010
0001
0100
0001
0010
1010
,
0101
0000
0000
0000
1100
0000
0011
0000
1010
0000
0101
0000
0000
0110
0000
1010
,
0000
0000
0000
1010
0000
0101
0000
1010
0000
0110
0000
0000
0000
1010
0000
0101
,
0000
0000
0110
1100
0101
0110
0000
1010
,
0101
0000
0000
0000
2000
0200
0020
0031
0310
3100
1000
0100
0010
0000
0101
0000
,
1010
0100
0101
0110
1100
0201
0000
1310
,
0011
0100
0011
1100
0101
0210
0000
0311
,
1010
0100
0101
0010
1100
0102
0000
1013
,
0101
0000
1010
0000
0100
0001
1100
0010
0100
0010
1001
0010
0100
0001
1100
0010
,
0100
0001
1010
0100
0001
0010
1100
0000
0010
0000
1100
0010
0100
0001
0110
1000
,
0100
0001
1010
0100
0001
0010
0101
0010
0100
0001
1010
0100
0001
0100
1001
0100
,
0010
0100
1001
0100
0010
0100
0011
0000
0100
0010
1001
0100
0010
0100
1100
0010
,
0001
0100
0011
0100
0010
0100
0011
0000
1000
0100
0011
0100
0001
0100
1010
0100
,
0010
0100
0011
0010
0100
0010
1100
0010
0001
0100
1010
0100
0001
0010
1100
0010
,
0001
0100
0011
0100
0001
0100
1010
0100
0010
0001
0110
1000
0001
0100
0011
0000
,
0010
0100
1010
0100
0001
0010
1001
0000
0100
0010
0101
0010
1000
0100
0011
0100
,
0001
0010
1100
1000
0001
0100
0011
0100
0001
0010
1100
0000
0101
0000
1010
0000
,
0110
1001
1010
0011
0110
0101
1010
1100
,
0011
1100
0011
0101
1010
0101
0110
1100
,
0101
0110
0011
1100
1001
0101
1010
0110
,
0011
1100
0011
1100
0011
1001
0101
1010
,
0110
1010
0101
0011
1100
0101
0110
1010
,
0101
0110
1100
0011
0110
1001
1001
0101
,
1010
0101
1100
0011
1001
0101
1010
0110
,
0011
1100
0011
1010
0110
0011
1010
0101
,
0110
0110
1100
1100
0011
0011
1010
1010
,
0000
0101
0101
1001
0000
1001
0100
0001
,
0110
1001
1100
1001
0011
1001
1010
1001
,
0101
1001
0011
1001
0000
1001
0000
0110
,
0110
1100
0110
0011
0011
1100
1100
0011
,
0101
1100
1010
0011
0000
1010
0000
0100
,
0101
1010
0110
0101
1010
0101
2010
0000
,
3110
0001
0110
1000
0101
1010
0101
1010
,
0101
0000
0000
0000
1100
0000
0011
0000
1010
0000
0101
0000
0000
0110
0000
1010
,
0000
0000
0000
1010
0000
0101
0000
1010
0000
0110
0000
0000
0000
1010
0000
0101
,
0000
0000
0110
1100
0101
0110
0000
1010
,
0110
0001
0010
0100
1000
0100
0010
0001
0010
0100
1000
0100
0010
0000
0101
0000
,
1010
0100
0101
0110
1100
0201
0000
1310
,
0011
0100
0011
1100
0101
0210
0000
0311
,
1010
0100
0101
0010
1100
0102
0000
1013
,
0101
0000
1010
0000
0100
0001
1100
0010
0100
0010
1001
0010
0100
0001
1000
0000
,
0101
1000
0110
0001
1001
1000
0101
0010
,
0100
0100
1010
2001
0000
3001
0010
0010
,
0101
1000
0101
0010
1100
0100
0011
0100
,
1010
1000
0101
0020
0000
0130
1010
0100
,
0101
0010
1100
0100
0011
0001
1010
0100
,
1001
0010
1100
0020
0000
1030
0100
0011
,
1101
1011
1101
1110
1011
1110
1211
0000
,
1311
0100
0010
0001
0010
0100
1000
0100
0010
0001
0010
0100
1000
0000
1010
0000
,
0101
0000
1100
0011
1010
0101
0110
1010
,
0101
0100
0101
0110
1010
1001
1010
0101
,
0100
0011
0110
1100
0101
0110
0000
1010
,
0101
0000
0000
0000
2000
0200
0020
0001
0031
0310
3100
1000
0010
0000
0101
0000
,
1010
0100
0101
0110
1100
0201
0000
1310
,
0011
0100
0011
1100
0101
0210
0000
0311
,
1010
0100
0101
0010
1100
0102
0000
1013
,
0101
0000
1010
0000
0100
0001
1100
0010
0100
0010
1001
0010
0100
0001
1100
0010
,
0100
0001
1010
0100
0001
0010
1100
0000
0010
0000
1100
0010
0100
0001
0110
1000
,
0100
0001
1010
0100
0001
0010
0101
0010
0100
0001
1010
0100
0001
0100
1001
0100
,
0010
0100
1001
0100
0010
0100
0011
0000
0100
0010
1001
0100
0010
0100
1100
0010
,
0001
0100
0011
0100
0010
0100
0011
0000
1000
0100
0011
0100
0001
0100
1010
0100
,
0010
0100
0011
0010
0100
0010
1100
0010
0001
0100
1010
0100
0001
0010
1100
0010
,
0001
0100
0011
0100
0001
0100
1010
0100
0010
0001
0110
1000
0001
0100
0011
0000
,
0010
0100
1010
0100
0001
0010
1001
0000
0100
0010
0101
0010
1000
0100
0011
0100
,
0001
0000
0000
0000
0010
0000
0000
0000
1100
0000
0000
0000
1000
0000
0000
0000
0001
0000
0000
0000
0100
0000
0000
0000
0011
0000
0000
0000
0100
0000
0000
0000
0001
0000
0000
0000
0010
0000
0000
0000
1100
0000
0000
0000
0000
0000
0000
0000
0101
0000
0000
0000
0000
0000
0000
0000
2222
3333
0000
0000
0000
0000
0000
0000
;
